VertrigoServ 2.51 | Life Below Zero - Season 11 | Eileen Atkins
 


 

DNS SERVER AENDERNum der staatlichen Zensur zu umgehen. Sollten wir von eurem Provider geseprrt werden, nutzt den TOR BROWSER oder ändert euren DNS SERVER.

Filmwünsche können bei uns im Forum abgegeben werden

Wir Speichern Nicht




 
 
 
Top Releases
Early.Man.Steinzeit.Bereit.2...
A.Beautiful.Day.2017.German....
Early.Man.Steinzeit.bereit.2...
Early.Man.Steinzeit.bereit.2...
A.Breath.Away.2018.German.AC...
Die.UFO-Verschwoerung.2018.G...
Deadpool.2.Kinofassung.2018....
Nur.Gott.kann.mich.richten.2...
Red.Dog.Mein.treuer.Freund.2...
The.Kings.Ring.Die.Letzte.Sc...

Cinedubs
Jurassic.World.2.Das.gefalle...
Ant-Man.and.the.Wasp.TS.LD.G...
I.Feel.Pretty.2018.German.AC...
I.Feel.Pretty.2018.German.AC...
Skyscraper.2018.German.AC3LD...
Jurassic.World.2.Das.gefalle...
Jurassic.World.2.Das.gefalle...
Jurassic.World.2.Das.gefalle...
Skyscraper.2018.German.AC3LD...
Skyscraper.2018.German.AC3LD...

Neuerscheinungen 2017-18
Invasion.U.S.A.1985.MULTi.CO...
Die.Strategie.der.Spinne.Str...
Brueder.Teil.2.2017.German.1...
Brueder.Teil.1.2017.German.1...
Bayern.sagenhaft.2017.GERMAN...
Global.Storm.Die.finale.Kata...
The.End.2017.German.AC3.DL.1...
Tsotsi.2005.MULTi.COMPLETE.B...
Meuterei.auf.der.Todesinsel....
Undercover.Grandpa.2017.Germ...

XXX
UpHerAsshole.18.07.05.Anny.A...
VIPArea.18.01.11.Elle.Alexan...
VIPArea.17.12.23.Abby.Cross....
TeensLoveBlackCocks.18.08.27...
TransAngels.18.03.19.Bianka....
SweetSinner.18.07.05.Kenna.J...
VIPArea.17.02.28.Emily.Addis...
VIPArea.18.01.02.Capri.Ander...
TMWVRNet.18.07.06.Roxy.Lips....
TabooPOV.18.07.05.Sarah.Vand...
VIPArea.18.03.15.Hayden.Hawk...
TransAngels.18.03.05.Foxxy.M...
TeensLoveHugeCocks.18.07.06....
VIPArea.18.01.29.Emily.Addis...
UltimateSurrender.18.07.04.C...
TeachMeFisting.18.08.27.Anto...
TheFuckingClinic.18.07.06.La...
TransAngels.18.03.12.Chanel....
Swallowed.18.07.06.Bobbi.Dyl...
VIPArea.18.02.02.Gracie.Glam...

3D
Avengers.Infinity.War.3D.201...
Avengers.Infinity.War.3D.201...
Rampage.Big.Meets.Bigger.3D....
Rampage.Big.Meets.Bigger.3D....
Rampage.Big.Meets.Bigger.3D....
Winter.Games.3D.2013.DUAL.CO...
Tomb.Raider.3D.2018.German.7...
Rampage.Big.Meets.Bigger.3D....
Rampage.Big.Meets.Bigger.3D....
Tomb.Raider.3D.2018.MULTi.CO...
Pacific.Rim.Uprising.3D.2018...
Ready.Player.One.3D.2018.Ger...
Rampage.-.Big.Meets.Bigger.2...
Ready.Player.One.2018.3D.HOU...
Ready.Player.One.2018.3D.HSB...

Old_Stuff
Den.Himmel.gibts.echt.DL.108...
Vikings.S02.German.DL.1080p....
Be.Kind.Rewind.Abgedreht.200...
Be.Kind.Rewind.Abgedreht.200...
Dracula.The.Dark.Lord.2012.G...
21.2008.German.DL.1080p.BluR...
Achtung.fertig.WK.Swissgerma...
The.Ouija.Exorcism.2015.MULT...
Meine.liebe.Rabenmutter.germ...
Da.Vincis.Demons.S01.Complet...
Eragon.Das.Vermaechtnis.der....
Adele.und.das.Geheimnis.des....
Die.fabelhafte.Welt.der.Amel...
Haus.des.Geldes.S01.German.M...
How.I.Met.Your.Mother.S01.Ge...

Filme
Bitter.Moon.1992.German.1080...
Die.Regeln.des.Spiels.2002.G...
MotoGP.Moto2.Moto3.Saison.20...
MotoGP.Moto2.Moto3.Saison.20...
Meuterei.auf.der.Teufelsinse...
Meuterei.auf.der.Teufelsinse...
Rache.aus.dem.Jenseits.1976....
Stan.Lees.Lucky.Man.S03.GERM...
Stan.Lees.Lucky.Man.S03.GERM...
Marvels.Agents.of.S.H.I.E.L....
Marvels.Agents.of.S.H.I.E.L....
Modern.Family.S08.GERMAN.DUB...
Modern.Family.S08.GERMAN.DUB...
Longmire.S05.GERMAN.AC3.DL.H...
Men.in.Black.II.2002.German....
Louis.und.seine.ausserirdisc...
The.Looming.Tower.S01.COMPLE...
Wie.das.Leben.so.spielt.2009...
Jumanji.4K.Remastered.1995.G...
Die.Teufelin.1989.German.720...
Die.Teufelin.1989.German.DL....
Theater.des.Grauens.1973.Ger...
Theater.des.Grauens.1973.Ger...
The.Looming.Tower.S01.COMPLE...

 
 
Jurassic.World.2.Das.gefallene.Koenigreich.3D.German.DL.AC3.Dubbed.1080p.BluRay.x264-PsO

Jahr: 2018
Genre: Action | Abenteuer | Sci-Fi
Sprache: Deutsch AC3 | Englisch DTS
Laufzeit: 2h 8mn
Bitrate: 11.2 Mbps
Format: MKV
Größe: 10.0 GiB
Release:

Beschreibung:

Vier Jahre, nachdem der Themenpark Jurassic World vor marodierenden Dinosauriern zerstört wurde, haben die Urzeitechsen die Isla Nublar komplett für sich zurückerobert. Dort leben sie ungestört von den Menschen, sehen jedoch bald einer ganz neuen Bedrohung ins Auge: Auf der Insel befindet sich ein aktiver Vulkan, der auszubrechen und die gesamte Gegend unter Feuer und Asche zu begraben droht. Dinosaurierflüsterer Owen (Chris Pratt) und die ehemalige Parkmanagerin Claire (Bryce Dallas Howard) möchten das erneute Aussterben der Dinos um jeden Preis verhindern und kehren zur Rettung der Tiere auf die Insel zurück. Vor allem um seinen Saurier-Schützling Blue ist Owen besorgt. Der Raptor ist scheinbar unauffindbar in der Wildnis verschollen. Während Owen sich auf die Suche begibt, kommen die anderen Mitglieder seiner Expedition einer Verschwörung auf die Spur… 

 




Complete name                            : pso-jw2_bd.1080p.3d.mkv
Format                                   : Matroska
Format version                           : Version 4 / Version 2
File size                                : 10.0 GiB
Duration                                 : 2h 8mn
Overall bit rate                         : 11.2 Mbps
Encoded date                             : UTC 2018-09-08 23:34:31
Writing application                      : mkvmerge v21.0.0 ('Tardigrades Will Inherit The Earth') 64-bit
Writing library                          : libebml v1.3.5 + libmatroska v1.4.8
DURATION                                 : 02:08:17.696000000
NUMBER_OF_FRAMES                         : 721659
NUMBER_OF_BYTES                          : 1451977908
_STATISTICS_WRITING_APP                  : mkvmerge v21.0.0 ('Tardigrades Will Inherit The Earth') 64-bit
_STATISTICS_WRITING_DATE_UTC             : 2018-09-08 23:34:31
_STATISTICS_TAGS                         : BPS DURATION NUMBER_OF_FRAMES NUMBER_OF_BYTES

Video
ID                                       : 2
Format                                   : AVC
Format/Info                              : Advanced Video Codec
Format profile                           : [email protected]
Format settings, CABAC                   : Yes
Format settings, ReFrames                : 5 frames
Codec ID                                 : V_MPEG4/ISO/AVC
Duration                                 : 2h 8mn
Bit rate                                 : 9 468 Kbps
Width                                    : 1 920 pixels
Height                                   : 808 pixels
Display aspect ratio                     : 2.40:1
Frame rate mode                          : Constant
Frame rate                               : 23.976 fps
Color space                              : YUV
Chroma subsampling                       : 4:2:0
Bit depth                                : 8 bits
Scan type                                : Progressive
Bits/(Pixel*Frame)                       : 0.255
Stream size                              : 8.29 GiB (83%)
Writing library                          : x264 core 157 r2932 303c484
Encoding settings                        : cabac=1 / ref=5 / deblock=1:-3:-3 / analyse=0x3:0x113 / me=umh / subme=8 / psy=1 / psy_rd=1.00:0.00 / mixed_ref=1 / me_range=16 / chroma_me=1 / trellis=1 / 8x8dct=1 / cqm=0 / deadzone=21,11 / fast_pskip=1 / chroma_qp_offset=-2 / threads=24 / lookahead_threads=4 / sliced_threads=0 / nr=0 / decimate=1 / interlaced=0 / bluray_compat=0 / constrained_intra=0 / bframes=3 / b_pyramid=2 / b_adapt=1 / b_bias=0 / direct=3 / weightb=1 / open_gop=0 / weightp=2 / keyint=250 / keyint_min=23 / scenecut=40 / intra_refresh=0 / rc_lookahead=50 / rc=2pass / mbtree=1 / bitrate=9468 / ratetol=1.0 / qcomp=0.60 / qpmin=0 / qpmax=69 / qpstep=4 / cplxblur=20.0 / qblur=0.5 / ip_ratio=1.40 / aq=1:1.00
Language                                 : English
Default                                  : Yes
Forced                                   : No

Audio #1
ID                                       : 1
Format                                   : AC-3
Format/Info                              : Audio Coding 3
Mode extension                           : CM (complete main)
Format settings, Endianness              : Big
Codec ID                                 : A_AC3
Duration                                 : 2h 8mn
Bit rate mode                            : Constant
Bit rate                                 : 224 Kbps
Channel(s)                               : 2 channels
Channel positions                        : Front: L R
Sampling rate                            : 48.0 KHz
Bit depth                                : 16 bits
Compression mode                         : Lossy
Delay relative to video                  : 22ms
Stream size                              : 206 MiB (2%)
Language                                 : German
Default                                  : Yes
Forced                                   : Yes
DURATION                                 : 02:08:17.690000000
NUMBER_OF_FRAMES                         : 184560
NUMBER_OF_BYTES                          : 9110058470
_STATISTICS_WRITING_APP                  : mkvmerge v21.0.0 ('Tardigrades Will Inherit The Earth') 64-bit
_STATISTICS_WRITING_DATE_UTC             : 2018-09-08 23:34:31
_STATISTICS_TAGS                         : BPS DURATION NUMBER_OF_FRAMES NUMBER_OF_BYTES

Audio #2
ID                                       : 3
Format                                   : DTS
Format/Info                              : Digital Theater Systems
Mode                                     : 16
Format settings, Endianness              : Big
Codec ID                                 : A_DTS
Duration                                 : 2h 8mn
Bit rate mode                            : Constant
Bit rate                                 : 1 509 Kbps
Channel(s)                               : 6 channels
Channel positions                        : Front: L C R, Side: L R, LFE
Sampling rate                            : 48.0 KHz
Bit depth                                : 24 bits
Compression mode                         : Lossy
Stream size                              : 1.35 GiB (13%)
Language                                 : English
Default                                  : No
Forced                                   : No


Download:
Share Online Share OnlineShare OnlineShare Online
 

Kommentare