Sieben verdammt lange Tage | Adaptive Wireless Communications; MIMO Channels and Networks | PoinBreak 3D HOU BluRay 3D 1080p
 


 

DNS SERVER AENDERNum der staatlichen Zensur zu umgehen. Sollten wir von eurem Provider geseprrt werden, nutzt den TOR BROWSER oder ändert euren DNS SERVER.

Filmwünsche können bei uns im Forum abgegeben werden

Wir Speichern Nicht




 
 
 
Top Releases
Arthur.und.Claire.2017.Germa...
Arthur.und.Claire.2017.Germa...
Arthur.und.Claire.2017.Germa...
Virunga.2014.German.DL.Doku....
Virunga.2014.German.DL.Doku....
Ungehorsam.2017.German.AC3.D...
Solange.ich.atme.2017.German...
Roman.J.Israel.Esq.Die.Wahrh...
Early.Man.Steinzeit.bereit.2...
Early.Man.Steinzeit.Bereit.2...

Cinedubs
Solo.A.Star.Wars.Story.2018....
Solo.A.Star.Wars.Story.2018....
Loving.Pablo.2017.German.AC3...
Jurassic.World.2.Das.gefalle...
Ant-Man.and.the.Wasp.TS.LD.G...
Skyscraper.2018.German.AC3LD...
Jurassic.World.2.Das.gefalle...
Jurassic.World.2.Das.gefalle...
Jurassic.World.2.Das.gefalle...
Skyscraper.2018.German.AC3LD...

Neuerscheinungen 2017-18
The.Hurricane.Heist.2018.Ger...
The.Hurricane.Heist.2018.Ger...
I.Feel.Pretty.2018.German.DL...
Brueder.2017.GERMAN.COMPLETE...
Arthur.und.Claire.2017.GERMA...
I.Feel.Pretty.2018.German.DT...
I.Feel.Pretty.2018.German.DT...
Romina.2018.German.1080p.WEB...
Romina.2018.German.720p.WEB....
Heilstaetten.2018.German.AC3...

XXX
BlacksOnBlondes.18.09.04.Lil...
BadTeensPunished.18.09.03.Bl...
BrazzersExxtra.18.09.04.Vero...
BigGulpGirls.18.08.31.Ruthle...
BlackIsBetter.18.09.03.Abell...
BlackedRaw.18.09.04.Haley.Re...
BitchConfessions.18.09.03.Ba...
ATKHairy.18.09.01.Apricot.Pi...
BangBros18.18.09.04.Julz.Got...
ATKHairy.18.09.02.Ivy.Adams....
BackroomCastingCouch.18.09.0...
AnalTeenAngels.18.09.04.Selv...
Anilos.18.09.04.Florane.Russ...
AussieDoll.17.04.18.Leila.Se...
Bang.RealMILFs.18.09.04.Miss...
BruceAndMorgan.18.08.24.Bruc...
Bang.RealTeens.18.09.03.Soph...
AmateurCFNM.18.09.04.Charlot...
BabyGotBoobs.18.09.04.Quinn....
BigGulpGirls.18.08.27.Nora.I...

3D
Avengers.Infinity.War.3D.201...
Avengers.Infinity.War.3D.201...
Rampage.Big.Meets.Bigger.3D....
Rampage.Big.Meets.Bigger.3D....
Rampage.Big.Meets.Bigger.3D....
Winter.Games.3D.2013.DUAL.CO...
Tomb.Raider.3D.2018.German.7...
Rampage.Big.Meets.Bigger.3D....
Rampage.Big.Meets.Bigger.3D....
Tomb.Raider.3D.2018.MULTi.CO...
Pacific.Rim.Uprising.3D.2018...
Ready.Player.One.3D.2018.Ger...
Rampage.-.Big.Meets.Bigger.2...
Ready.Player.One.2018.3D.HOU...
Ready.Player.One.2018.3D.HSB...

Old_Stuff
Den.Himmel.gibts.echt.DL.108...
Vikings.S02.German.DL.1080p....
Be.Kind.Rewind.Abgedreht.200...
Be.Kind.Rewind.Abgedreht.200...
Dracula.The.Dark.Lord.2012.G...
21.2008.German.DL.1080p.BluR...
Achtung.fertig.WK.Swissgerma...
The.Ouija.Exorcism.2015.MULT...
Meine.liebe.Rabenmutter.germ...
Da.Vincis.Demons.S01.Complet...
Eragon.Das.Vermaechtnis.der....
Adele.und.das.Geheimnis.des....
Die.fabelhafte.Welt.der.Amel...
Haus.des.Geldes.S01.German.M...
How.I.Met.Your.Mother.S01.Ge...

Filme
Papillon.1973.German.DL.1080...
Papillon.1973.German.720p.Bl...
Die.Strategie.der.Spinne.197...
Die.Strategie.der.Spinne.197...
The.Deuce.S02.GERMAN.DL.720p...
The.Big.Bang.Theory.S11.Germ...
The.Big.Bang.Theory.S11.Germ...
Succession.S01.German.DD51.S...
Succession.S01.German.DD51.S...
The.Last.Ship.S05.GERMAN.DUB...
Crazy.Ex.Girlfriend.S03.Germ...
The.Last.Ship.S05.GERMAN.DUB...
Crazy.Ex.Girlfriend.S03.Germ...
Once.Upon.a.Time.S07.German....
Once.Upon.a.Time.S07.German....
Fear.The.Walking.Dead.S04.Ge...
Fear.The.Walking.Dead.S04.Ge...
Bad.Boys.II.2003.German.DL.2...
Crossfire.2008.German.DTS.10...
Crossfire.2016.German.DL.108...
Crows.Zero.2.The.Crows.are.b...
Headshot.2016.German.1080p.B...
Croupier.1998.German.AC3D.DL...
Crimson.Peak.2015.German.DTS...

 
 
The.Hurricane.Heist.2018.German.DL.1080p.BluRay.x264-ENCOUNTERS

Jahr: 2018
Genre: Action, Thriller
Sprache: Deutsch DTS | Englisch DTS
Laufzeit: 1h 42mn
Bitrate: 11.5 Mbps
Format: MKV
Größe: 8.25 GiB
Release:

Beschreibung:

Der Plan ist brillant ausgeheckt: Weil ein gewaltiger Hurricane die Sicherheitskräfte fordert, hat eine Gruppe von Söldnern und Hackern leichtes Spiel, ein verwaistes Gelddepot in Alabama auszuräumen. Aber eines haben die Gangster nicht berechnet: Sturmjäger Riker, dessen Bruder, ein ehemaliger Elitesoldat, und Schatzamt-Agentin Adams nehmen die Verfolgung auf. Und der Hurricane hat noch gar nicht richtig angefangen.



Complete name                            : encounters-thhuhe_1080p.mkv
Format                                   : Matroska
Format version                           : Version 4 / Version 2
File size                                : 8.25 GiB
Duration                                 : 1h 42mn
Overall bit rate                         : 11.5 Mbps
Encoded date                             : UTC 2018-09-11 10:16:40
Writing application                      : mkvmerge v8.5.0 ('Vanishing Act') 64bit
Writing library                          : libebml v1.3.1 + libmatroska v1.4.2
DURATION                                 : 00:03:50.209000000
NUMBER_OF_FRAMES                         : 3
NUMBER_OF_BYTES                          : 134
_STATISTICS_WRITING_APP                  : mkvmerge v8.5.0 ('Vanishing Act') 64bit
_STATISTICS_WRITING_DATE_UTC             : 2018-09-11 10:16:40
_STATISTICS_TAGS                         : BPS DURATION NUMBER_OF_FRAMES NUMBER_OF_BYTES

Video
ID                                       : 1
Format                                   : AVC
Format/Info                              : Advanced Video Codec
Format profile                           : [email protected]
Format settings, CABAC                   : Yes
Format settings, ReFrames                : 5 frames
Codec ID                                 : V_MPEG4/ISO/AVC
Duration                                 : 1h 42mn
Bit rate                                 : 8 238 Kbps
Width                                    : 1 920 pixels
Height                                   : 808 pixels
Display aspect ratio                     : 2.40:1
Frame rate mode                          : Constant
Frame rate                               : 24.000 fps
Color space                              : YUV
Chroma subsampling                       : 4:2:0
Bit depth                                : 8 bits
Scan type                                : Progressive
Bits/(Pixel*Frame)                       : 0.221
Stream size                              : 5.92 GiB (72%)
Title                                    : encounters-thhuhe_1080p
Writing library                          : x264 core 155 r2901 7d0ff22
Encoding settings                        : cabac=1 / ref=5 / deblock=1:-1:-1 / analyse=0x3:0x133 / me=umh / subme=7 / psy=1 / psy_rd=1.00:0.15 / mixed_ref=1 / me_range=16 / chroma_me=1 / trellis=1 / 8x8dct=1 / cqm=0 / deadzone=21,11 / fast_pskip=0 / chroma_qp_offset=-3 / threads=24 / lookahead_threads=4 / sliced_threads=0 / nr=0 / decimate=1 / interlaced=0 / bluray_compat=0 / constrained_intra=0 / bframes=3 / b_pyramid=2 / b_adapt=1 / b_bias=0 / direct=1 / weightb=1 / open_gop=0 / weightp=2 / keyint=250 / keyint_min=24 / scenecut=40 / intra_refresh=0 / rc_lookahead=40 / rc=crf / mbtree=1 / crf=20.0 / qcomp=0.60 / qpmin=0 / qpmax=69 / qpstep=4 / ip_ratio=1.40 / aq=1:1.00
Default                                  : Yes
Forced                                   : No

Audio #1
ID                                       : 2
Format                                   : DTS
Format/Info                              : Digital Theater Systems
Mode                                     : 16
Format settings, Endianness              : Big
Codec ID                                 : A_DTS
Duration                                 : 1h 42mn
Bit rate mode                            : Constant
Bit rate                                 : 1 509 Kbps
Channel(s)                               : 6 channels
Channel positions                        : Front: L C R, Side: L R, LFE
Sampling rate                            : 48.0 KHz
Bit depth                                : 24 bits
Compression mode                         : Lossy
Stream size                              : 1.08 GiB (13%)
Title                                    : German DTS 5.1 @ 1 509 kb/s
Language                                 : German
Default                                  : Yes
Forced                                   : No

Audio #2
ID                                       : 3
Format                                   : DTS
Format/Info                              : Digital Theater Systems
Mode                                     : 16
Format settings, Endianness              : Big
Codec ID                                 : A_DTS
Duration                                 : 1h 42mn
Bit rate mode                            : Constant
Bit rate                                 : 1 509 Kbps
Channel(s)                               : 6 channels
Channel positions                        : Front: L C R, Side: L R, LFE
Sampling rate                            : 48.0 KHz
Bit depth                                : 24 bits
Compression mode                         : Lossy
Stream size                              : 1.08 GiB (13%)
Title                                    : English DTS 5.1 @ 1 509 kb/s
Language                                 : English
Default                                  : No
Forced                                   : No

Text #1
ID                                       : 4
Format                                   : UTF-8
Codec ID                                 : S_TEXT/UTF8
Codec ID/Info                            : UTF-8 Plain Text
Title                                    : ger_forced.srt
Language                                 : German
Default                                  : Yes
Forced                                   : Yes

Text #2
ID                                       : 5
Format                                   : UTF-8
Codec ID                                 : S_TEXT/UTF8
Codec ID/Info                            : UTF-8 Plain Text
Title                                    : eng_forced.srt
Language                                 : English
Default                                  : No
Forced                                   : No


Download:
Share Online Share OnlineShare OnlineShare Online
 

Kommentare