Puchitto Gargantia | La Balada De Hugo Sanchez HDTV | Texas Watterston
 


 

DNS SERVER AENDERNum der staatlichen Zensur zu umgehen. Sollten wir von eurem Provider geseprrt werden, nutzt den TOR BROWSER oder ändert euren DNS SERVER.

Filmwünsche können bei uns im Forum abgegeben werden

Wir Speichern Nicht




 
 
 
Top Releases
The.Seagull.Eine.unerhoerte....
Racer.and.the.Jailbird.2017....
Jurassic.World.2.Das.gefalle...
3.Tage.in.Quiberon.2018.GERM...
3.Tage.in.Quiberon.2018.GERM...
Norman.2016.German.AC3D.DL.1...
Wo.steckt.Sidney.Hall.2017.G...
Chappie.2015.German.AC3.DL.1...
Solo.A.Star.Wars.Story.2018....
Der.Buchladen.der.Florance.G...

Cinedubs
Hotel.Transsilvanien.3.Ein.M...
Hotel.Transsilvanien.3.Ein.M...
The.Seagull.Eine.unerhoerte....
The.Seagull.Eine.unerhoerte....
First.Reformed.2017.German.D...
Mamma.Mia.2.Here.We.Go.Again...
First.Reformed.German.DL.AC3...
The.First.Purge.2018.German....
No.Way.Out.Gegen.die.Flammen...
First.Reformed.German.DL.AC3...

Neuerscheinungen 2017-18
Mom.and.Dad.2017.MULTI.COMPL...
The.Asian.Connection.2016.CO...
Mom.and.Dad.2017.GERMAN.720p...
Solo.A.Star.Wars.Story.2018....
3.Tage.in.Quiberon.2018.GERM...
The.Asian.Connection.2016.GE...
The.Asian.Connection.2016.GE...
Sharknado.6.The.Last.One.201...
Sharknado.6.The.Last.One.201...
Mom.and.Dad.2017.German.AC3....

XXX
PropertySex.18.09.07.Vina.Sk...
PornstarPlatinum.18.09.09.Av...
PublicPickUps.18.09.10.Lucia...
PremiumBukkake.18.09.07.Cami...
Pure-BBW.18.07.26.Anal.Sex.I...
RKPrime.18.09.10.Jynx.Maze.A...
RealGirlsGoneBad.18.09.01.Se...
PremiumBukkake.18.09.05.Cami...
PornMegaLoad.18.09.09.Rachel...
PornstarPlatinum.18.09.10.Br...
Pure-BBW.18.08.02.Mermaid.Bb...
Pure-BBW.18.09.06.Tattooed.S...
Pure-BBW.18.08.09.Redhead.Ss...
Pure-BBW.18.08.30.Sensual.Ne...
PureMature.18.09.07.Isabelle...
Pure-BBW.18.08.23.Oiled.Up.A...
Pure-BBW.18.08.16.Oiling.Up....
Private.Tropical.29.Sluts.An...
RealWifeStories.18.09.09.Lel...
PremiumBukkake.18.08.24.Jime...

3D
Sharknado.6.The.Last.One.3D....
Solo.A.Star.Wars.Story.3D.20...
Solo.A.Star.Wars.Story.3D.20...
Die.Biene.Maja.2.Die.Honigsp...
Avengers.Infinity.War.3D.201...
Avengers.Infinity.War.3D.201...
Rampage.Big.Meets.Bigger.3D....
Rampage.Big.Meets.Bigger.3D....
Rampage.Big.Meets.Bigger.3D....
Winter.Games.3D.2013.DUAL.CO...
Tomb.Raider.3D.2018.German.7...
Rampage.Big.Meets.Bigger.3D....
Rampage.Big.Meets.Bigger.3D....
Tomb.Raider.3D.2018.MULTi.CO...
Pacific.Rim.Uprising.3D.2018...

Old_Stuff
Schimanski.-.Duisburg.Ruhror...
Akte.X.S02.German.DTS.DL.108...
How.I.Met.Your.Mother.S02.Ge...
Akte.X.S01.German.DTS.DL.108...
Den.Himmel.gibts.echt.DL.108...
Vikings.S02.German.DL.1080p....
Be.Kind.Rewind.Abgedreht.200...
Be.Kind.Rewind.Abgedreht.200...
Dracula.The.Dark.Lord.2012.G...
21.2008.German.DL.1080p.BluR...
Achtung.fertig.WK.Swissgerma...
The.Ouija.Exorcism.2015.MULT...
Meine.liebe.Rabenmutter.germ...
Da.Vincis.Demons.S01.Complet...
Eragon.Das.Vermaechtnis.der....

Filme
Batman.Begins.2005.German.AC...
Talk.to.the.Dead.2013.German...
Tannoed.2009.German.DTS.1080...
Ran.1985.German.AC3.DL.1080p...
Tanz.der.Teufel.II.1987.Germ...
Loewengrube.1989.S01D01+2.GE...
Tanz.der.Teufel.1981.UNCUT.R...
Tao.Jie.Ein.einfaches.Leben....
Taped.2012.GERMAN.1080p.HDTV...
Arrow.S06.GERMAN.DL.1080p.HD...
Arrow.S06.GERMAN.DL.720p.HDT...
Taras.Bulba.1962.GERMAN.AC3D...
Better.Call.Saul.S04.German....
Die.Simpsons.S29.GERMAN.DUBB...
Power.2014.S05.German.DL.DUB...
Power.2014.S05.German.DL.DUB...
The.Deuce.S02.GERMAN.DL.1080...
The.Deuce.S02.GERMAN.DL.720p...
Taste.the.Waste.2010.German....
Taste.of.Money.Die.Macht.der...
Tasmanian.Devils.Die.Jagd.ha...
Legends.of.Tomorrow.S03.Germ...
Legends.of.Tomorrow.S03.GERM...
Pater.Brown.-.Er.kanns.nicht...

 
 
Batman.Begins.2005.German.AC3.DL.1080p.UHD.BluRay.x265-FuN

Jahr: 2005
Genre: Action, Abenteuer
Sprache: Deutsch AC3 | Englisch AC3
Laufzeit: 2h 20mn
Bitrate: 2 217 Kbps
Format: MKV
Größe: 2.17 GiB
Release:

Beschreibung:

Wie wurde Bruce Wayne zu Batman? Als kleiner Junge musste Bruce Wayne mit ansehen, wie seine Eltern auf grauenhafte Weise umgebracht wurden. Deshalb kümmert sich der Butler Alfred Pennyworth um ihn und zieht ihn groß.Eines Tages macht er sich in aller Welt auf die Suche nach einem Weg, die Ungerechtigkeit zu bekämpfen. Als er nach seiner Reise wieder in seine Heimatstadt Gotham City zurückkehrt, muss er feststellen, dass die Verbrechensrate deutlich angestiegen ist. Dieser Umstand und der Drang nach Rache am Mord seiner Eltern treiben ihn langsam aber sicher dazu, sich Kampftechniken beizubringen und ein Fledermauskostüm zu entwerfen, mit deren Hilfe er Nacht für Nacht die Kriminellen der Stadt zur Strecke bringt - als Batman.



Complete name                            : Batman.Begins.x265.mkv
Format                                   : Matroska
Format version                           : Version 4 / Version 2
File size                                : 2.17 GiB
Duration                                 : 2h 20mn
Overall bit rate                         : 2 217 Kbps
Movie name                               : Batman Begins 2005 UHD2BD DTS DL 1080p x264 - bigevel
Encoded date                             : UTC 2018-09-18 05:09:02
Writing application                      : mkvmerge v20.0.0 ('I Am The Sun') 64-bit
Writing library                          : libebml v1.3.5 + libmatroska v1.4.8
Attachements                             : Cover.jpg
DURATION                                 : 00:00:01.042000000
NUMBER_OF_FRAMES                         : 1
NUMBER_OF_BYTES                          : 24
_STATISTICS_WRITING_APP                  : mkvmerge v20.0.0 ('I Am The Sun') 64-bit
_STATISTICS_WRITING_DATE_UTC             : 2018-09-18 05:09:02
_STATISTICS_TAGS                         : BPS DURATION NUMBER_OF_FRAMES NUMBER_OF_BYTES

Video
ID                                       : 1
Format                                   : HEVC
Format/Info                              : High Efficiency Video Coding
Format profile                           : [email protected]
Codec ID                                 : V_MPEGH/ISO/HEVC
Duration                                 : 2h 20mn
Bit rate                                 : 1 405 Kbps
Width                                    : 1 920 pixels
Height                                   : 800 pixels
Display aspect ratio                     : 2.40:1
Frame rate mode                          : Constant
Frame rate                               : 23.976 fps
Color space                              : YUV
Chroma subsampling                       : 4:2:0
Bit depth                                : 8 bits
Bits/(Pixel*Frame)                       : 0.038
Stream size                              : 1.37 GiB (63%)
Writing library                          : x265 2.6:[Windows][GCC 7.3.0][64 bit] 8bit+10bit+12bit
Encoding settings                        : cpuid=1173503 / frame-threads=3 / numa-pools=8 / wpp / no-pmode / no-pme / no-psnr / no-ssim / log-level=2 / input-csp=1 / input-res=1920x800 / interlace=0 / total-frames=0 / level-idc=0 / high-tier=1 / uhd-bd=0 / ref=3 / no-allow-non-conformance / no-repeat-headers / annexb / no-aud / no-hrd / info / hash=0 / no-temporal-layers / open-gop / min-keyint=24 / keyint=240 / bframes=4 / b-adapt=0 / b-pyramid / bframe-bias=0 / rc-lookahead=15 / lookahead-slices=5 / scenecut=40 / no-intra-refresh / ctu=64 / min-cu-size=8 / no-rect / no-amp / max-tu-size=32 / tu-inter-depth=1 / tu-intra-depth=1 / limit-tu=0 / rdoq-level=0 / dynamic-rd=0.00 / no-ssim-rd / signhide / no-tskip / nr-intra=0 / nr-inter=0 / no-constrained-intra / no-strong-intra-smoothing / max-merge=2 / limit-refs=3 / no-limit-modes / me=1 / subme=2 / merange=57 / temporal-mvp / weightp / no-weightb / no-analyze-src-pics / deblock=0:0 / no-sao / no-sao-non-deblock / rd=2 / no-early-skip / rskip / fast-intra / no-tskip-fast / no-cu-lossless / no-b-intra / no-splitrd-skip / rdpenalty=0 / psy-rd=2.00 / psy-rdoq=0.00 / no-rd-refine / analysis-reuse-mode=0 / no-lossless / cbqpoffs=0 / crqpoffs=0 / rc=crf / crf=23.0 / qcomp=0.60 / qpstep=4 / stats-write=0 / stats-read=0 / ipratio=1.40 / pbratio=1.30 / aq-mode=1 / aq-strength=1.00 / cutree / zone-count=0 / no-strict-cbr / qg-size=32 / no-rc-grain / qpmax=69 / qpmin=0 / no-const-vbv / sar=1 / overscan=0 / videoformat=5 / range=0 / colorprim=1 / transfer=1 / colormatrix=1 / chromaloc=0 / display-window=0 / max-cll=0,0 / min-luma=0 / max-luma=255 / log2-max-poc-lsb=8 / vui-timing-info / vui-hrd-info / slices=1 / no-opt-qp-pps / no-opt-ref-list-length-pps / no-multi-pass-opt-rps / scenecut-bias=0.05 / no-opt-cu-delta-qp / no-aq-motion / no-hdr / no-hdr-opt / no-dhdr10-opt / analysis-reuse-level=5 / scale-factor=0 / refine-intra=0 / refine-inter=0 / refine-mv=0 / no-limit-sao / ctu-info=0 / no-lowpass-dct / refine-mv-type=0 / copy-pic=1
Default                                  : Yes
Forced                                   : No
DURATION                                 : 02:20:03.896000000
NUMBER_OF_FRAMES                         : 201492
NUMBER_OF_BYTES                          : 1490947950
_STATISTICS_WRITING_APP                  : mkvmerge v20.0.0 ('I Am The Sun') 64-bit
_STATISTICS_WRITING_DATE_UTC             : 2018-09-18 05:09:02
_STATISTICS_TAGS                         : BPS DURATION NUMBER_OF_FRAMES NUMBER_OF_BYTES

Audio #1
ID                                       : 2
Format                                   : AC-3
Format/Info                              : Audio Coding 3
Mode extension                           : CM (complete main)
Format settings, Endianness              : Big
Codec ID                                 : A_AC3
Duration                                 : 2h 20mn
Bit rate mode                            : Constant
Bit rate                                 : 384 Kbps
Channel(s)                               : 6 channels
Channel positions                        : Front: L C R, Side: L R, LFE
Sampling rate                            : 48.0 KHz
Bit depth                                : 16 bits
Compression mode                         : Lossy
Stream size                              : 385 MiB (17%)
Title                                    : Surround
Language                                 : German
Default                                  : Yes
Forced                                   : No
DURATION                                 : 02:20:03.904000000
NUMBER_OF_FRAMES                         : 262622
NUMBER_OF_BYTES                          : 403387392
_STATISTICS_WRITING_APP                  : mkvmerge v20.0.0 ('I Am The Sun') 64-bit
_STATISTICS_WRITING_DATE_UTC             : 2018-09-18 05:09:02
_STATISTICS_TAGS                         : BPS DURATION NUMBER_OF_FRAMES NUMBER_OF_BYTES

Audio #2
ID                                       : 3
Format                                   : AC-3
Format/Info                              : Audio Coding 3
Mode extension                           : CM (complete main)
Format settings, Endianness              : Big
Codec ID                                 : A_AC3
Duration                                 : 2h 20mn
Bit rate mode                            : Constant
Bit rate                                 : 384 Kbps
Channel(s)                               : 6 channels
Channel positions                        : Front: L C R, Side: L R, LFE
Sampling rate                            : 48.0 KHz
Bit depth                                : 16 bits
Compression mode                         : Lossy
Stream size                              : 385 MiB (17%)
Title                                    : Surround
Language                                 : English
Default                                  : No
Forced                                   : No
DURATION                                 : 02:20:03.904000000
NUMBER_OF_FRAMES                         : 262622
NUMBER_OF_BYTES                          : 403387392
_STATISTICS_WRITING_APP                  : mkvmerge v20.0.0 ('I Am The Sun') 64-bit
_STATISTICS_WRITING_DATE_UTC             : 2018-09-18 05:09:02
_STATISTICS_TAGS                         : BPS DURATION NUMBER_OF_FRAMES NUMBER_OF_BYTES

Text #1
ID                                       : 4
Format                                   : UTF-8
Codec ID                                 : S_TEXT/UTF8
Codec ID/Info                            : UTF-8 Plain Text
Title                                    : forced
Language                                 : German
Default                                  : Yes
Forced                                   : Yes
DURATION                                 : 02:19:12.052000000
NUMBER_OF_FRAMES                         : 2946
NUMBER_OF_BYTES                          : 31581041
_STATISTICS_WRITING_APP                  : mkvmerge v20.0.0 ('I Am The Sun') 64-bit
_STATISTICS_WRITING_DATE_UTC             : 2018-09-18 05:09:02
_STATISTICS_TAGS                         : BPS DURATION NUMBER_OF_FRAMES NUMBER_OF_BYTES

Text #2
ID                                       : 5
Format                                   : PGS
Muxing mode                              : zlib
Codec ID                                 : S_HDMV/PGS
Codec ID/Info                            : The same subtitle format used on BDs/HD-DVDs
Title                                    : PGS forced
Language                                 : German
Default                                  : No
Forced                                   : No
DURATION                                 : 02:09:58.332000000
NUMBER_OF_FRAMES                         : 2998
NUMBER_OF_BYTES                          : 36342061
_STATISTICS_WRITING_APP                  : mkvmerge v20.0.0 ('I Am The Sun') 64-bit
_STATISTICS_WRITING_DATE_UTC             : 2018-09-18 05:09:02
_STATISTICS_TAGS                         : BPS DURATION NUMBER_OF_FRAMES NUMBER_OF_BYTES

Text #3
ID                                       : 6
Format                                   : PGS
Muxing mode                              : zlib
Codec ID                                 : S_HDMV/PGS
Codec ID/Info                            : The same subtitle format used on BDs/HD-DVDs
Title                                    : PGS FULL
Language                                 : German
Default                                  : No
Forced                                   : No
DURATION                                 : 00:00:01.042000000
NUMBER_OF_FRAMES                         : 2
NUMBER_OF_BYTES                          : 14266
_STATISTICS_WRITING_APP                  : mkvmerge v20.0.0 ('I Am The Sun') 64-bit
_STATISTICS_WRITING_DATE_UTC             : 2018-09-18 05:09:02
_STATISTICS_TAGS                         : BPS DURATION NUMBER_OF_FRAMES NUMBER_OF_BYTES

Text #4
ID                                       : 7
Format                                   : PGS
Muxing mode                              : zlib
Codec ID                                 : S_HDMV/PGS
Codec ID/Info                            : The same subtitle format used on BDs/HD-DVDs
Title                                    : PGS FULL
Language                                 : English
Default                                  : No
Forced                                   : No


Download:
Share Online Share OnlineShare OnlineShare Online
 

Kommentare