Regarder | Aloha 2016 BRRip XviD AC4-EVO | Kaspersky Free 18.0.0.405
 


 

Filecrypt zeigt vereinzelt Files als "n/a". Die Downloads sind trotzdem komplett.

DNS SERVER AENDERNum der staatlichen Zensur zu umgehen. Sollten wir von eurem Provider geseprrt werden, nutzt den TOR BROWSER oder ändert euren DNS SERVER.

Filmwünsche können bei uns im Forum abgegeben werden

Wir Speichern Nicht




 
 
 
Top Releases
Der.Nebelmann.2017.German.AC...
iBoy.2017.German.AC3.DL.1080...
Kodachrome.2017.German.AC3.D...
Win.It.All.2017.German.DL.10...
Win.It.All.2017.German.DL.72...
Lucid.Dream.2017.German.AC3....
Win.It.All.2017.German.AC3.D...
Transit.2018.GERMAN.COMPLETE...
Crouching.Tiger.Hidden.Drago...
Tully.2018.German.DL.1080p.B...

Cinedubs
Ant-Man.and.the.Wasp.2018.Ge...
Ant-Man.and.the.Wasp.2018.Ge...
Ant-Man.and.the.Wasp.German....
Ant-Man.and.the.Wasp.German....
Ant-Man.and.the.Wasp.2018.Ge...
Ant-Man.and.the.Wasp.2018.Ge...
Skyscraper.German.DL.AC3.Dub...
Skyscraper.German.DL.AC3.Dub...
Hotel.Artemis.2018.GERMAN.DL...
Hotel.Artemis.2018.GERMAN.DL...

Neuerscheinungen 2017-18
Nach.einer.wahren.Geschichte...
Ab.nach.Deutschland.2015.Ger...
Ab.nach.Deutschland.2015.Ger...
Triassic.World.2018.German.D...
Havoc.Playing.with.Death.Pla...
Elvira.Herrscherin.der.Dunke...
Fuenf.Freunde.und.das.Tal.de...
Regression.2015.German.AC3.D...
Game.Over.Man.2018.German.AC...
The.Ridiculous.6.2017.German...

XXX
OldYoungLesbianLove.18.09.17...
Natalies.Gang.Bang.Party.XXX...
Pantyhosed4U.18.09.19.Tina.K...
Natalies.Gang.Bang.Party.XXX...
MySistersHotFriend.18.09.18....
NubileFilms.18.09.20.Alexa.G...
ATKHairy.18.09.17.Helen.Volg...
MyFriendsHotMom.18.09.20.Bri...
PlayboyPlus.18.09.16.Mashup....
PlayboyPlus.18.09.17.Kit.Rys...
Nubiles.18.09.18.Emma.Fantas...
PlumperPass.18.09.17.Asstyn....
Petite.18.09.19.Lenna.Lux.Le...
AbbyWinters.18.09.18.Rose.K....
OnlyBlowJob.18.09.20.Baby.Ni...
AbbyWinters.18.09.18.Sonya.I...
Nubiles.18.09.17.Mary.Lin.Uk...
Nubiles.18.09.18.Asuna.Fit.A...
InTheCrack.E1450.Lulu.Love.X...
NubileFilms.18.09.17.Veronic...

3D
Jurassic.World.Das.gefallene...
Jurassic.World.Das.gefallene...
Best.of.3D.vol.10.-.12.GERMA...
Die.Biene.Maja.2.Die.Honigsp...
Sharknado.6.The.Last.One.3D....
Solo.A.Star.Wars.Story.3D.20...
Solo.A.Star.Wars.Story.3D.20...
Die.Biene.Maja.2.Die.Honigsp...
Avengers.Infinity.War.3D.201...
Avengers.Infinity.War.3D.201...
Rampage.Big.Meets.Bigger.3D....
Rampage.Big.Meets.Bigger.3D....
Rampage.Big.Meets.Bigger.3D....
Winter.Games.3D.2013.DUAL.CO...
Tomb.Raider.3D.2018.German.7...

Old_Stuff
Britney.Spears.Live.The.Femm...
Buffy.The.Vampire.Slayer.199...
IMAX.Ride.Around.The.World.2...
Schimanski.-.Duisburg.Ruhror...
Akte.X.S02.German.DTS.DL.108...
How.I.Met.Your.Mother.S02.Ge...
Akte.X.S01.German.DTS.DL.108...
Den.Himmel.gibts.echt.DL.108...
Vikings.S02.German.DL.1080p....
Be.Kind.Rewind.Abgedreht.200...
Be.Kind.Rewind.Abgedreht.200...
Dracula.The.Dark.Lord.2012.G...
21.2008.German.DL.1080p.BluR...
Achtung.fertig.WK.Swissgerma...
The.Ouija.Exorcism.2015.MULT...

Filme
Europa.Report.2013.German.AC...
Verraten.und.verloren.-.Die....
Dracula.jagt.Mini.Maedchen.1...
Dracula.jagt.Mini.Maedchen.1...
Legend.2015.German.AC3.DL.10...
Superwaffen.im.Zweiten.Weltk...
Honeckers.unheimlicher.Plan....
Fruehjahr.48.GERMAN.DOKU.720...
Die.unglaubliche.Reise.in.ei...
Djangos.Rueckkehr.1987.Germa...
Spur.der.Verwuestung.2005.Ge...
The.Hollow.Child.2017.German...
The.Hollow.Child.2017.German...
Vielmachglas.2018.German.DTS...
Vielmachglas.2018.German.DTS...
The.Broken.German.DL.1080p.B...
Keinohrhasen.2007.German.DTS...
Theater.des.Grauens.1973.Ger...
Robin.Hood.Koenig.der.Diebe....
Idiocracy.2006.German.AC3D.D...
Oscar.-.Vom.Regen.in.die.Tra...
Oscar.-.Vom.Regen.in.die.Tra...
Todespagode.des.gelben.Tiger...
Punisher.War.Zone.2008.Germa...

 
 
Europa.Report.2013.German.AC3.DL.1080p.BluRay.x265-FuN

Jahr: 2013
Genre: Sci-Fi | Thriller
Sprache: Deutsch AC3 | Englisch AC3
Laufzeit: 1h 30mn
Bitrate: 3 263 Kbps
Format: MKV
Größe: 2.05 GiB
Release:

Beschreibung:

In der fernen Zukunft berichtet Dr. Samantha Unger (Embeth Davidtz), CEO der Firma „Europa Ventures“, von einer gescheiterten Mission: Eine sechsköpfige Crew von internationalen Astronauten und genialen Wissenschaftlern (u.a. Sharlto Copley, Christian Camargo und Michael Nyqvist) wird im Jahr 2061 auf eine geheime Mission zum vierten Jupitermond mit dem Namen "Europa" geschickt, nachdem viele Jahre zuvor unter dessen Oberfläche Wasser entdeckt wurde. Dort sollen die Wissenschaftler in den Eisbrocken nach möglichen außerirdischen Lebensformen suchen. Nach einem Jahr verlieren sie durch einen technischen Unfall jeglichen Kontakt zur Erde. Das Team will die Mission jedoch zu Ende führen und zeichnet weiterhin den Fortschritt mit Kameras auf. Sie finden neue Nahrungsformen und das Wasser entpuppt sich tatsächlich als flüssig, wodurch all ihre Hoffnungen und ihre Mission erfüllt zu sein scheinen. Die Crew macht sich für die Rückkehr zur Erde bereit, doch plötzlich spielen die Lichtsensoren verrückt und die Bewegungsmelder im Wasser schlagen Alarm...




Format                                   : Matroska
Format version                           : Version 4 / Version 2
File size                                : 2.05 GiB
Duration                                 : 1h 30mn
Overall bit rate                         : 3 263 Kbps
Encoded date                             : UTC 2018-10-03 15:59:08
Writing application                      : HandBrake 20180926214903-4981e11-master 2018092701
Writing library                          : Lavf58.12.100

Video
ID                                       : 1
Format                                   : HEVC
Format/Info                              : High Efficiency Video Coding
Format profile                           : [email protected]
Codec ID                                 : V_MPEGH/ISO/HEVC
Duration                                 : 1h 30mn
Bit rate                                 : 2 430 Kbps
Width                                    : 1 918 pixels
Height                                   : 1 078 pixels
Display aspect ratio                     : 16:9
Frame rate mode                          : Constant
Frame rate                               : 23.976 fps
Color space                              : YUV
Chroma subsampling                       : 4:2:0
Bit depth                                : 8 bits
Bits/(Pixel*Frame)                       : 0.049
Stream size                              : 1.53 GiB (74%)
Writing library                          : x265 2.8:[Windows][GCC 7.1.0][64 bit] 8bit+10bit+12bit
Encoding settings                        : cpuid=1111039 / frame-threads=3 / numa-pools=8 / wpp / no-pmode / no-pme / no-psnr / no-ssim / log-level=2 / input-csp=1 / input-res=1918x1078 / interlace=0 / total-frames=0 / level-idc=0 / high-tier=1 / uhd-bd=0 / ref=3 / no-allow-non-conformance / no-repeat-headers / annexb / no-aud / no-hrd / info / hash=0 / no-temporal-layers / open-gop / min-keyint=24 / keyint=240 / gop-lookahead=0 / bframes=4 / b-adapt=2 / b-pyramid / bframe-bias=0 / rc-lookahead=20 / lookahead-slices=6 / scenecut=40 / radl=0 / no-intra-refresh / ctu=64 / min-cu-size=8 / no-rect / no-amp / max-tu-size=32 / tu-inter-depth=1 / tu-intra-depth=1 / limit-tu=0 / rdoq-level=0 / dynamic-rd=0.00 / no-ssim-rd / signhide / no-tskip / nr-intra=0 / nr-inter=0 / no-constrained-intra / no-strong-intra-smoothing / max-merge=2 / limit-refs=3 / no-limit-modes / me=1 / subme=2 / merange=57 / temporal-mvp / weightp / no-weightb / no-analyze-src-pics / deblock=0:0 / no-sao / no-sao-non-deblock / rd=3 / no-early-skip / rskip / no-fast-intra / no-tskip-fast / no-cu-lossless / no-b-intra / no-splitrd-skip / rdpenalty=0 / psy-rd=2.00 / psy-rdoq=0.00 / no-rd-refine / no-lossless / cbqpoffs=0 / crqpoffs=0 / rc=crf / crf=23.0 / qcomp=0.60 / qpstep=4 / stats-write=0 / stats-read=0 / ipratio=1.40 / pbratio=1.30 / aq-mode=1 / aq-strength=1.00 / cutree / zone-count=0 / no-strict-cbr / qg-size=32 / no-rc-grain / qpmax=69 / qpmin=0 / no-const-vbv / sar=1 / overscan=0 / videoformat=5 / range=0 / colorprim=1 / transfer=1 / colormatrix=1 / chromaloc=0 / display-window=0 / max-cll=0,0 / min-luma=0 / max-luma=255 / log2-max-poc-lsb=8 / vui-timing-info / vui-hrd-info / slices=1 / no-opt-qp-pps / no-opt-ref-list-length-pps / no-multi-pass-opt-rps / scenecut-bias=0.05 / no-opt-cu-delta-qp / no-aq-motion / no-hdr / no-hdr-opt / no-dhdr10-opt / no-idr-recovery-sei / analysis-reuse-level=5 / scale-factor=0 / refine-intra=0 / refine-inter=0 / refine-mv=0 / no-limit-sao / ctu-info=0 / no-lowpass-dct / refine-mv-type=0 / copy-pic=1 / max-ausize-factor=1.0 / no-dynamic-refine / no-single-sei
Default                                  : Yes
Forced                                   : No
DURATION                                 : 01:30:05.447000000

Audio #1
ID                                       : 2
Format                                   : AC-3
Format/Info                              : Audio Coding 3
Mode extension                           : CM (complete main)
Format settings, Endianness              : Big
Codec ID                                 : A_AC3
Duration                                 : 1h 30mn
Bit rate mode                            : Constant
Bit rate                                 : 384 Kbps
Channel(s)                               : 6 channels
Channel positions                        : Front: L C R, Side: L R, LFE
Sampling rate                            : 48.0 KHz
Bit depth                                : 16 bits
Compression mode                         : Lossy
Delay relative to video                  : -5ms
Stream size                              : 247 MiB (12%)
Title                                    : Surround
Language                                 : German
Default                                  : Yes
Forced                                   : No
DURATION                                 : 01:30:05.440000000

Audio #2
ID                                       : 3
Format                                   : AC-3
Format/Info                              : Audio Coding 3
Mode extension                           : CM (complete main)
Format settings, Endianness              : Big
Codec ID                                 : A_AC3
Duration                                 : 1h 30mn
Bit rate mode                            : Constant
Bit rate                                 : 384 Kbps
Channel(s)                               : 6 channels
Channel positions                        : Front: L C R, Side: L R, LFE
Sampling rate                            : 48.0 KHz
Bit depth                                : 16 bits
Compression mode                         : Lossy
Delay relative to video                  : -5ms
Stream size                              : 247 MiB (12%)
Title                                    : Surround
Language                                 : English
Default                                  : No
Forced                                   : No
DURATION                                 : 01:30:05.440000000



Download:
Share Online Share OnlineShare OnlineShare Online
 

Kommentare