Always HD Quality  Latest Movie Download Just Click Here And Visit | Knightfall Serie TV Streaming Download | H2O : Footprints In The Sand DVD Subtitle Indonesia
 


 

Filecrypt zeigt vereinzelt Files als "n/a". Die Downloads sind trotzdem komplett.

DNS SERVER AENDERNum der staatlichen Zensur zu umgehen. Sollten wir von eurem Provider geseprrt werden, nutzt den TOR BROWSER oder ändert euren DNS SERVER.

Filmwünsche können bei uns im Forum abgegeben werden

Wir Speichern Nicht




 
 
 
Top Releases
The.12th.Man.Kampf.ums.Ueber...
To.All.the.Boys.Ive.Loved.Be...
Breakfast.on.Pluto.2005.Germ...
Operation.Finale.2018.German...
Tramps.2016.German.AC3.DL.10...
Umweg.nach.Hause.2016.German...
Der.Nebelmann.2017.German.AC...
iBoy.2017.German.AC3.DL.1080...
Kodachrome.2017.German.AC3.D...
Win.It.All.2017.German.DL.10...

Cinedubs
Ant-Man.and.the.Wasp.2018.Ge...
Ant-Man.and.the.Wasp.2018.Ge...
Ant-Man.and.the.Wasp.German....
Ant-Man.and.the.Wasp.German....
Ant-Man.and.the.Wasp.2018.Ge...
Ant-Man.and.the.Wasp.2018.Ge...
Skyscraper.German.DL.AC3.Dub...
Skyscraper.German.DL.AC3.Dub...
Hotel.Artemis.2018.GERMAN.DL...
Hotel.Artemis.2018.GERMAN.DL...

Neuerscheinungen 2017-18
Sahara.2017.German.AC3.DL.10...
Nach.einer.wahren.Geschichte...
Ab.nach.Deutschland.2015.Ger...
Ab.nach.Deutschland.2015.Ger...
Triassic.World.2018.German.D...
Havoc.Playing.with.Death.Pla...
Elvira.Herrscherin.der.Dunke...
Fuenf.Freunde.und.das.Tal.de...
Regression.2015.German.AC3.D...
Game.Over.Man.2018.German.AC...

XXX
VickyAtHome.18.09.02.Melissa...
Yonitale.18.09.07.Licking.Wi...
WeLiveTogether.18.09.09.Darc...
PureTaboo.18.09.20.The.Scam....
VIPissy.18.09.10.Licky.Lex.A...
OldYoungLesbianLove.18.09.17...
Natalies.Gang.Bang.Party.XXX...
Pantyhosed4U.18.09.19.Tina.K...
Natalies.Gang.Bang.Party.XXX...
MySistersHotFriend.18.09.18....
NubileFilms.18.09.20.Alexa.G...
ATKHairy.18.09.17.Helen.Volg...
MyFriendsHotMom.18.09.20.Bri...
PlayboyPlus.18.09.16.Mashup....
PlayboyPlus.18.09.17.Kit.Rys...
Nubiles.18.09.18.Emma.Fantas...
PlumperPass.18.09.17.Asstyn....
Petite.18.09.19.Lenna.Lux.Le...
AbbyWinters.18.09.18.Rose.K....
OnlyBlowJob.18.09.20.Baby.Ni...

3D
Jurassic.World.Das.gefallene...
Jurassic.World.Das.gefallene...
Best.of.3D.vol.10.-.12.GERMA...
Die.Biene.Maja.2.Die.Honigsp...
Sharknado.6.The.Last.One.3D....
Solo.A.Star.Wars.Story.3D.20...
Solo.A.Star.Wars.Story.3D.20...
Die.Biene.Maja.2.Die.Honigsp...
Avengers.Infinity.War.3D.201...
Avengers.Infinity.War.3D.201...
Rampage.Big.Meets.Bigger.3D....
Rampage.Big.Meets.Bigger.3D....
Rampage.Big.Meets.Bigger.3D....
Winter.Games.3D.2013.DUAL.CO...
Tomb.Raider.3D.2018.German.7...

Old_Stuff
Britney.Spears.Live.The.Femm...
Buffy.The.Vampire.Slayer.199...
IMAX.Ride.Around.The.World.2...
Schimanski.-.Duisburg.Ruhror...
Akte.X.S02.German.DTS.DL.108...
How.I.Met.Your.Mother.S02.Ge...
Akte.X.S01.German.DTS.DL.108...
Den.Himmel.gibts.echt.DL.108...
Vikings.S02.German.DL.1080p....
Be.Kind.Rewind.Abgedreht.200...
Be.Kind.Rewind.Abgedreht.200...
Dracula.The.Dark.Lord.2012.G...
21.2008.German.DL.1080p.BluR...
Achtung.fertig.WK.Swissgerma...
The.Ouija.Exorcism.2015.MULT...

Filme
Winchester.Das.Haus.der.Verd...
Solo.A.Star.Wars.Story.2018....
Early.Man.Steinzeit.bereit.2...
Der.Nebelmann.2017.German.DT...
The.Punisher.Extended.Versio...
Es.2017.German.DTS.DL.1080p....
Inside.2016.German.DTS.DL.10...
Europa.Report.2013.German.AC...
Verraten.und.verloren.-.Die....
Dracula.jagt.Mini.Maedchen.1...
Dracula.jagt.Mini.Maedchen.1...
Legend.2015.German.AC3.DL.10...
Superwaffen.im.Zweiten.Weltk...
Honeckers.unheimlicher.Plan....
Fruehjahr.48.GERMAN.DOKU.720...
Die.unglaubliche.Reise.in.ei...
Djangos.Rueckkehr.1987.Germa...
Spur.der.Verwuestung.2005.Ge...
The.Hollow.Child.2017.German...
The.Hollow.Child.2017.German...
Vielmachglas.2018.German.DTS...
Vielmachglas.2018.German.DTS...
The.Broken.German.DL.1080p.B...
Keinohrhasen.2007.German.DTS...

 
 
Sahara.2017.German.AC3.DL.1080p.WEB-DL.x265-FuN

Jahr: 2017
Genre: Animation, Adventure, Comedy
Sprache: Deutsch AC3 | Englisch AC3
Laufzeit: 1h 25mn
Bitrate: 2 363 Kbps
Format: MKV
Größe: 1.41 GiB
Release:

Beschreibung:

Zwei Arten von Schlangen leben in der Sahara: Wunderschöne grüne Schlangen haben sich eine schützende Oase aufgebaut und sich einem friedlichen Leben verschrieben. Ihnen gegenüber stehen ihre giftigen Artgenossen, die sich im Sand verkriechen. Unter ihnen ist auch Ajar (im Original gesprochen von Omar Sy), der von seinem Klan bereits ausgelacht wird, weil er sich noch nicht gehäutet hat und so ganz anders ist als seine Schlangenfreunde. Als er sich entschließt, sein Leben in der Wüste hinter sich zu lassen, trifft er auf die Prinzessin Eva (Louane Emera). Eva gehört zu den Schlangen der Oase und will einer arrangierten Ehe entfliehen. Ajar und Eva verlieben sich. Als Eva von Tuaregs gefangen wird, setzt Ajar alles daran, seine Liebste zu retten und bekommt dabei Hilfe von Skorpion Pitt (Franck Gastambide) und Schlange Gary (Vincent Lacoste).




Format                                   : Matroska
Format version                           : Version 4 / Version 2
File size                                : 1.41 GiB
Duration                                 : 1h 25mn
Overall bit rate                         : 2 363 Kbps
Encoded date                             : UTC 2018-10-02 22:04:09
Writing application                      : HandBrake 20180926214903-4981e11-master 2018092701
Writing library                          : Lavf58.12.100

Video
ID                                       : 1
Format                                   : HEVC
Format/Info                              : High Efficiency Video Coding
Format profile                           : [email protected]
Codec ID                                 : V_MPEGH/ISO/HEVC
Duration                                 : 1h 25mn
Bit rate                                 : 1 548 Kbps
Width                                    : 1 920 pixels
Height                                   : 800 pixels
Display aspect ratio                     : 2.40:1
Frame rate mode                          : Constant
Frame rate                               : 24.000 fps
Color space                              : YUV
Chroma subsampling                       : 4:2:0
Bit depth                                : 8 bits
Bits/(Pixel*Frame)                       : 0.042
Stream size                              : 947 MiB (66%)
Writing library                          : x265 2.8:[Windows][GCC 7.1.0][64 bit] 8bit+10bit+12bit
Encoding settings                        : cpuid=1111039 / frame-threads=3 / numa-pools=8 / wpp / no-pmode / no-pme / no-psnr / no-ssim / log-level=2 / input-csp=1 / input-res=1920x800 / interlace=0 / total-frames=0 / level-idc=0 / high-tier=1 / uhd-bd=0 / ref=3 / no-allow-non-conformance / no-repeat-headers / annexb / no-aud / no-hrd / info / hash=0 / no-temporal-layers / open-gop / min-keyint=24 / keyint=240 / gop-lookahead=0 / bframes=4 / b-adapt=2 / b-pyramid / bframe-bias=0 / rc-lookahead=20 / lookahead-slices=5 / scenecut=40 / radl=0 / no-intra-refresh / ctu=64 / min-cu-size=8 / no-rect / no-amp / max-tu-size=32 / tu-inter-depth=1 / tu-intra-depth=1 / limit-tu=0 / rdoq-level=0 / dynamic-rd=0.00 / no-ssim-rd / signhide / no-tskip / nr-intra=0 / nr-inter=0 / no-constrained-intra / no-strong-intra-smoothing / max-merge=2 / limit-refs=3 / no-limit-modes / me=1 / subme=2 / merange=57 / temporal-mvp / weightp / no-weightb / no-analyze-src-pics / deblock=0:0 / no-sao / no-sao-non-deblock / rd=3 / no-early-skip / rskip / no-fast-intra / no-tskip-fast / no-cu-lossless / no-b-intra / no-splitrd-skip / rdpenalty=0 / psy-rd=2.00 / psy-rdoq=0.00 / no-rd-refine / no-lossless / cbqpoffs=0 / crqpoffs=0 / rc=crf / crf=20.0 / qcomp=0.60 / qpstep=4 / stats-write=0 / stats-read=0 / ipratio=1.40 / pbratio=1.30 / aq-mode=1 / aq-strength=1.00 / cutree / zone-count=0 / no-strict-cbr / qg-size=32 / no-rc-grain / qpmax=69 / qpmin=0 / no-const-vbv / sar=1 / overscan=0 / videoformat=5 / range=0 / colorprim=1 / transfer=1 / colormatrix=1 / chromaloc=0 / display-window=0 / max-cll=0,0 / min-luma=0 / max-luma=255 / log2-max-poc-lsb=8 / vui-timing-info / vui-hrd-info / slices=1 / no-opt-qp-pps / no-opt-ref-list-length-pps / no-multi-pass-opt-rps / scenecut-bias=0.05 / no-opt-cu-delta-qp / no-aq-motion / no-hdr / no-hdr-opt / no-dhdr10-opt / no-idr-recovery-sei / analysis-reuse-level=5 / scale-factor=0 / refine-intra=0 / refine-inter=0 / refine-mv=0 / no-limit-sao / ctu-info=0 / no-lowpass-dct / refine-mv-type=0 / copy-pic=1 / max-ausize-factor=1.0 / no-dynamic-refine / no-single-sei
Default                                  : Yes
Forced                                   : No
DURATION                                 : 01:25:34.589000000

Audio #1
ID                                       : 2
Format                                   : AC-3
Format/Info                              : Audio Coding 3
Mode extension                           : CM (complete main)
Format settings, Endianness              : Big
Codec ID                                 : A_AC3
Duration                                 : 1h 25mn
Bit rate mode                            : Constant
Bit rate                                 : 384 Kbps
Channel(s)                               : 6 channels
Channel positions                        : Front: L C R, Side: L R, LFE
Sampling rate                            : 48.0 KHz
Bit depth                                : 16 bits
Compression mode                         : Lossy
Delay relative to video                  : -5ms
Stream size                              : 235 MiB (16%)
Title                                    : Surround
Language                                 : German
Default                                  : Yes
Forced                                   : No
DURATION                                 : 01:25:34.880000000

Audio #2
ID                                       : 3
Format                                   : AC-3
Format/Info                              : Audio Coding 3
Mode extension                           : CM (complete main)
Format settings, Endianness              : Big
Codec ID                                 : A_AC3
Duration                                 : 1h 25mn
Bit rate mode                            : Constant
Bit rate                                 : 384 Kbps
Channel(s)                               : 6 channels
Channel positions                        : Front: L C R, Side: L R, LFE
Sampling rate                            : 48.0 KHz
Bit depth                                : 16 bits
Compression mode                         : Lossy
Delay relative to video                  : -5ms
Stream size                              : 235 MiB (16%)
Title                                    : Surround
Language                                 : English
Default                                  : No
Forced                                   : No
DURATION                                 : 01:25:34.880000000



Download:
Share Online Share OnlineShare OnlineShare Online
 

Kommentare