Doctor Who 2005 S09E10 HDTV x264-TLA [eztv] | Fear the Walking Dea... 4x16 | As If It's Your Last
 


 

DNS SERVER AENDERNum der staatlichen Zensur zu umgehen. Sollten wir von eurem Provider geseprrt werden, nutzt den TOR BROWSER oder ändert euren DNS SERVER.

Filmwünsche können bei uns im Forum abgegeben werden

Wir Speichern Nicht




 
 
 
Top Releases
Ghost.Stories.Glaubst.du.an....
Please.Stand.By.2017.GERMAN....
Please.Stand.By.2017.GERMAN....
Deadpool.2.Super.Duper.Cut.2...
David.Brent.Life.on.the.Road...
David.Brent.Life.on.the.Road...
Amanda.Knox.2016.German.DL.D...
Amanda.Knox.2016.German.DL.D...
22.Bullets.2010.German.DL.10...
Unsere.Erde.2.Earth.One.Amaz...

Cinedubs
The.Equalizer.2.TS.LD.German...
Der.Hauptmann.2017.German.AA...
Der.Hauptmann.2017.German.AA...
Ghost.Stories.2017.German.AC...
Ghost.Stories.2017.German.AC...
Oceans.8.German.DL.AC3.Dubbe...
Oceans.8.German.DL.AC3.Dubbe...
Hereditary.Das.Vermaechtnis....
Hereditary.Das.Vermaechtnis....
Oceans.8.2018.German.DL.AC3D...

Neuerscheinungen 2017-18
The.End.2017.GERMAN.DUAL.COM...
The.End.2017.GERMAN.1080p.Bl...
Vater.des.Jahres.2018.German...
The.End.2017.GERMAN.720p.Blu...
Derren.Brown.The.Push.2018.G...
Derren.Brown.The.Push.2018.G...
Das.Vermaechtnis.des.Weisswe...
Das.Vermaechtnis.des.Weisswe...
Barry.2016.German.DL.720p.WE...
Barry.2016.German.DL.1080p.W...

XXX
PixAndVideo.18.08.20.Mary.Ka...
PlumperPass.18.08.20.Serenit...
PornMegaLoad.18.08.16.Zoe.Bl...
PornMegaLoad.18.08.16.Helen....
PervMom.18.07.31.Nina.Kayy.X...
PornMegaLoad.18.08.16.Claudi...
PornstarPlatinum.18.08.21.Am...
PornMegaLoad.18.08.15.Ana.Ro...
PervMom.18.07.19.Christiana....
PlayboyPlus.18.08.23.Elina.L...
Private.18.08.20.Private.Cas...
PlayboyPlus.18.08.17.Maija.R...
PornMegaLoad.18.08.16.Eliza....
PornFidelity.E756.Dakota.Sky...
Private.18.08.17.Lullu.Gun.M...
PornMegaLoad.18.08.17.Luna.B...
Private.18.08.21.Private.Cas...
Private.Specials.219.Anal.Lo...
Overstuffed.XXX.720p.WEBRip....
PornstarPlatinum.18.07.24.Am...

3D
Avengers.Infinity.War.3D.201...
Rampage.Big.Meets.Bigger.3D....
Rampage.Big.Meets.Bigger.3D....
Rampage.Big.Meets.Bigger.3D....
Winter.Games.3D.2013.DUAL.CO...
Tomb.Raider.3D.2018.German.7...
Rampage.Big.Meets.Bigger.3D....
Rampage.Big.Meets.Bigger.3D....
Tomb.Raider.3D.2018.MULTi.CO...
Pacific.Rim.Uprising.3D.2018...
Ready.Player.One.3D.2018.Ger...
Rampage.-.Big.Meets.Bigger.2...
Ready.Player.One.2018.3D.HOU...
Ready.Player.One.2018.3D.HSB...
Ready.Player.One.3D.2018.MUL...

Old_Stuff
Meine.liebe.Rabenmutter.germ...
Da.Vincis.Demons.S01.Complet...
Eragon.Das.Vermaechtnis.der....
Adele.und.das.Geheimnis.des....
Die.fabelhafte.Welt.der.Amel...
Haus.des.Geldes.S01.German.M...
How.I.Met.Your.Mother.S01.Ge...
The.Dark.Knight.Rises.2012.M...
Weissensee.S03.2015.GERMAN.C...
Weissensee.S01+S02.2010.GERM...
Die.Unglaublichen.-.The.Incr...
Der.grosse.Trick.1978.German...
Sully.2016.MULTi.COMPLETE.BL...
Tremors.3.Die.neue.Brut.2001...
Die.Indianer.von.Cleveland.2...

Filme
The.Remains.2016.German.DL.1...
The.Punisher.2004.UNCUT.Germ...
Ein.Kind.wartet.1963.German....
Leatherface.Texas.Chainsaw.M...
Leatherface.Texas.Chainsaw.M...
Todeszug.nach.Yuma.2007.Germ...
Cabal.Die.Brut.Der.Nacht.Dir...
Opfer.einer.grossen.Liebe.19...
Party.Animals.wilder.gehts.n...
Draculas.Hexenjagd.GERMAN.19...
A.Star.Is.Born.1937.German.A...
Amusement.2009.German.AC3D.1...
Unsere.Erde.2.2017.German.UH...
Shooter.S03.GERMAN.DUBBED.DL...
Shooter.S03.GERMAN.DUBBED.DL...
Die.Simpsons.S29.GERMAN.DUBB...
Die.Simpsons.S29.GERMAN.DUBB...
MacGyver.S02.GERMAN.DUBBED.D...
Better.Call.Saul.S04.German....
Better.Call.Saul.S04.German....
Warrior.2011.German.DL.DTSD....
Ein.Zwilling.kommt.selten.al...
Ein.Zwilling.kommt.selten.al...
Dream.Cruise.Albtraum.aus.de...

 
 
Falling.Skies.S03.COMPLETE.German.DL.1080p.BluRay.x264-iNTENTiON

Jahr: 2013
Genre: Action | Sci-Fi | Thriller
Sprache: Deutsch AC3 | Englisch AC3
Laufzeit: 42min je Folge
Bitrate: 9300 Kbps
Format: MKV
Größe: 3,1 GB je Folge
Release:

Beschreibung:

Die Erde wurde überrannt. Aggressive Außerirdische haben Millionen getötet und den Rest der hoffnungslos unterlegenen Menschheit zerstreut. Die Serie folgt einer Gruppe Bostoner Zivilisten und der sie begleitenden Massachusetts 2, einem versprengten Rest der US Army. Tom Mason (N. Wyle) und sein ältester Sohn Hal (D. Roy) sind auf der Suche nach seinem mittleren Sohn Ben (C. Jessup), der von den Aliens, wie viele andere Kinder auch, entführt wurde. Gleichzeitig versuchen sie gemeinsam mit Captain Dan Weaver (W. Patton) die Zivilisten zu schützen und einen beginnenden Widerstand gegen die Invasoren voranzutreiben..



General
Complete name                            : Falling.Skies.S03E01.German.DL.1080p.BluRay.x264-iNTENTiON\falling.skies.s03e01.german.dl.1080p.bluray.x264-intention.mkv
Format                                   : Matroska
Format version                           : Version 2
File size                                : 3.19 GiB
Duration                                 : 42mn 13s
Overall bit rate                         : 10.8 Mbps
Writing application                      : mkvmerge v6.6.0 ('The Edge Of The In Between') built on Dec 1 2013 17:55:00
Writing library                          : libebml v1.3.0 + libmatroska v1.4.1

Video
ID                                       : 1
Format                                   : AVC
Format/Info                              : Advanced Video Codec
Format profile                           : [email protected]
Format settings, CABAC                   : Yes
Format settings, ReFrames                : 4 frames
Codec ID                                 : V_MPEG4/ISO/AVC
Duration                                 : 42mn 13s
Bit rate                                 : 9 321 Kbps
Width                                    : 1 920 pixels
Height                                   : 1 080 pixels
Display aspect ratio                     : 16:9
Frame rate mode                          : Constant
Frame rate                               : 23.976 fps
Color space                              : YUV
Chroma subsampling                       : 4:2:0
Bit depth                                : 8 bits
Scan type                                : Progressive
Bits/(Pixel*Frame)                       : 0.187
Stream size                              : 2.75 GiB (86%)
Writing library                          : x264 core 142 r2479 dd79a61
Encoding settings                        : cabac=1 / ref=4 / deblock=1:-3:-3 / analyse=0x3:0x133 / me=umh / subme=7 / psy=1 / psy_rd=1.00:0.15 / mixed_ref=1 / me_range=16 / chroma_me=1 / trellis=1 / 8x8dct=1 / cqm=0 / deadzone=21,11 / fast_pskip=0 / chroma_qp_offset=-3 / threads=12 / lookahead_threads=2 / sliced_threads=0 / nr=0 / decimate=1 / interlaced=0 / bluray_compat=0 / constrained_intra=0 / bframes=3 / b_pyramid=2 / b_adapt=1 / b_bias=0 / direct=3 / weightb=1 / open_gop=0 / weightp=2 / keyint=240 / keyint_min=23 / scenecut=40 / intra_refresh=0 / rc_lookahead=40 / rc=crf / mbtree=1 / crf=20.0 / qcomp=0.60 / qpmin=0 / qpmax=69 / qpstep=4 / ip_ratio=1.40 / aq=1:1.00
Language                                 : English
Default                                  : Yes
Forced                                   : No

Audio #1
ID                                       : 2
Format                                   : AC-3
Format/Info                              : Audio Coding 3
Mode extension                           : CM (complete main)
Format settings, Endianness              : Big
Codec ID                                 : A_AC3
Duration                                 : 42mn 13s
Bit rate mode                            : Constant
Bit rate                                 : 640 Kbps
Channel(s)                               : 6 channels
Channel positions                        : Front: L C R, Side: L R, LFE
Sampling rate                            : 48.0 KHz
Bit depth                                : 16 bits
Compression mode                         : Lossy
Stream size                              : 193 MiB (6%)
Language                                 : German
Default                                  : Yes
Forced                                   : No

Audio #2
ID                                       : 3
Format                                   : AC-3
Format/Info                              : Audio Coding 3
Mode extension                           : CM (complete main)
Format settings, Endianness              : Big
Codec ID                                 : A_AC3
Duration                                 : 42mn 13s
Bit rate mode                            : Constant
Bit rate                                 : 640 Kbps
Channel(s)                               : 6 channels
Channel positions                        : Front: L C R, Side: L R, LFE
Sampling rate                            : 48.0 KHz
Bit depth                                : 16 bits
Compression mode                         : Lossy
Stream size                              : 193 MiB (6%)
Language                                 : English
Default                                  : Yes
Forced                                   : No

Menu
00:00:00.000                             : en:00:00:00.000
00:04:14.671                             : en:00:04:14.671
00:06:59.794                             : en:00:06:59.794
00:16:26.611                             : en:00:16:26.611
00:23:25.613                             : en:00:23:25.613
00:29:44.700                             : en:00:29:44.700
00:35:45.143                             : en:00:35:45.143
00:41:38.079                             : en:00:41:38.079



Download:
Share-Online.biz Share-Online.bizShare-Online.bizShare-Online.biz | Uploaded.net Uploaded.netUploaded.netUploaded.net
 

Kommentare